즐겨찾기 | 현재접속자 (98) | 최근게시물
총 게시물 2,005건, 최근 20 건
   

[한글] 쉰들러 리스트 Schindlers List 1993 1080p Bluray x265 10Bit AAC 5.1 - GetSchwifty

글쓴이 : 익명글쓴이 날짜 : 2017-09-13 (수) 19:48 조회 : 261
다운로드 : [한글] 쉰들러 리스트 Schindlers List 1993 1080p Bluray x265 10Bit AAC 5.1 - GetSchwifty (1.7G)
170911 170912 170913 홈페이지, 토렌트, 바로보기, 유튜브

Source File:

Schindlers List 1993 1080p FRA BluRay AVC DTS-HD MA 5.1 - NOGROUP 



Media Information:


Code:

General 
Complete name : Schindlers List 1993 1080p Bluray x265 10Bit AAC 5.1 - GetSchwifty.mkv 
Format : Matroska 
Format version : Version 4 / Version 2 
File size : 6.91 GiB 
Duration : 3 h 15 min 
Overall bit rate : 5 071 kb/s 
Movie name : Schindlers List 
Encoded date : UTC 2017-09-12 02:44:04 

Video 
ID : 1 
Format : HEVC 
Format/Info : High Efficiency Video Coding 
Format profile : Main [email protected]@Main 
Codec ID : V_MPEGH/ISO/HEVC 
Duration : 3 h 15 min 
Bit rate : 4 631 kb/s 
Width : 1 920 pixels 
Height : 1 040 pixels 
Display aspect ratio : 1.85:1 
Frame rate mode : Constant 
Frame rate : 23.976 (24000/1001) FPS 
Color space : YUV 
Chroma subsampling : 4:2:0 
Bit depth : 10 bits 
Bits/(Pixel*Frame) : 0.097 
Stream size : 6.31 GiB (91%) 

Audio 
ID : 2 
Format : AAC 
Format/Info : Advanced Audio Codec 
Format profile : LC 
Codec ID : A_AAC 
Duration : 3 h 15 min 
Bit rate : 369 kb/s 
Channel(s) : 6 channels 
Channel positions : Front: L C R, Side: L R, LFE 
Sampling rate : 48.0 kHz 
Frame rate : 46.875 FPS (1024 SPF) 
Compression mode : Lossy 
Delay relative to video : 9 ms 
Stream size : 515 MiB (7%) 
Title : English AAC VBR 5.1 
Language : English 
Default : Yes 
Forced : No 

“왜 나는 더 많은 유태인들을 구해내지 못하였는가?”

1939년 9월 독일군의 폴란드 점령과 함께 오스카 쉰들러는 폴란드의 크레코우로 이주해온다. 기회주의자에 호색한인 쉰들러는 전쟁중 나치와 결탁해 임금을 줄 필요가 없는 유대인을 공장의 인력으로 이용한다. 이때 만난 유대인 회계사 아이작 스턴은 쉰들러의 내면에 숨어 있던 양심을 일깨워준다. 유대인들에 대한 박해가 심해지자 쉰들러는 그들을 강제수용소에서 구해내기로 결심한다. 수용소 장교에게 뇌물을 주고 유대인들을 자신의 고향으로 옮길 계획을 세운 쉰들러는 스턴과 함께 구출할 유대인 명단을 작성한다. 
[한글] 쉰들러 리스트 Schindlers List 1993 1080p Bluray x265 10Bit AAC 5.1 - GetSchwifty
[ 바로감상 ] [ 다운로드 ]

   

총 게시물 2,005건, 최근 20 건
번호 제목 날짜 조회
2005
줄거리지하실에서 발견한 죽은 자의 돈…마약상과 강도 그리고 한 부부가 이 돈을 쫓는다!넉넉하지 않은…
05:48 1
2004
모든 영웅은 그로부터 태어났고... 모든 전설은 이 전쟁으로부터 이루어졌다. | 새벽이 도도한 어둠을 밀…
05:48 1
2003
05:48 1
2002
05:48 1
2001
매일 아침, 과거의 기억이 사라진 채 남편의 품에서 깨어나는 크리스틴. 매일 아내에게 그녀가 누구인지…
05:48 1
2000
05:48 0
1999
05:48 0
1998
05:48 0
1997
05:48 0
1996
05:48 0
1995
05:48 0
1994
05:48 0
1993
10-16 11
1992
10-16 12
1991
10-16 12
1990
찰스 디킨스와 13년간 비밀스런 사랑을 이어온 넬리라는 여성에 관한 전기영화.
10-16 12
1989
뉴욕에 살고 있는 시인 로즈는 어느날, 세 어머니라는 책을 보게 된다. 바렐리라는 연금술사가 쓴 이 책…
10-16 10
1988
Source File:Apollo 13 1995 1080p REMASTERED BluRay AVC DTS-HD MA 5.1 - NOGROUP Media Information:Code:General Complete name : Apollo 13 1…
10-16 10
1987
 Disturbia 2007 in 1080p, encoded with x265 in HEVC and AAC 5.1 English, with subtitles! Encoded using the time consuming 2 pass, 10 bit …
10-16 10
1986
PG-13 | Comedy | 26 July 1991 (USA)  Format : MatroskaFormat version : Version 4 / Version 2File size : 1.94 GiBDuration : 1 h 32 minOvera…
10-16 15
 1  2  3  4  5  6  7  8  9  10  다음  맨끝