즐겨찾기 | 현재접속자 (141) | 최근게시물
총 게시물 2,894건, 최근 19 건
   

[한글] 쉰들러 리스트 Schindlers List 1993 1080p Bluray x265 10Bit AAC 5.1 - GetSchwifty

글쓴이 : 익명글쓴이 날짜 : 2017-09-13 (수) 19:48 조회 : 687
다운로드 : [한글] 쉰들러 리스트 Schindlers List 1993 1080p Bluray x265 10Bit AAC 5.1 - GetSchwifty (2.0G)
170911 170912 170913 마그넷, 사이트, 쥬비디오, 토렌트

Source File:

Schindlers List 1993 1080p FRA BluRay AVC DTS-HD MA 5.1 - NOGROUP 



Media Information:


Code:

General 
Complete name : Schindlers List 1993 1080p Bluray x265 10Bit AAC 5.1 - GetSchwifty.mkv 
Format : Matroska 
Format version : Version 4 / Version 2 
File size : 6.91 GiB 
Duration : 3 h 15 min 
Overall bit rate : 5 071 kb/s 
Movie name : Schindlers List 
Encoded date : UTC 2017-09-12 02:44:04 

Video 
ID : 1 
Format : HEVC 
Format/Info : High Efficiency Video Coding 
Format profile : Main [email protected]@Main 
Codec ID : V_MPEGH/ISO/HEVC 
Duration : 3 h 15 min 
Bit rate : 4 631 kb/s 
Width : 1 920 pixels 
Height : 1 040 pixels 
Display aspect ratio : 1.85:1 
Frame rate mode : Constant 
Frame rate : 23.976 (24000/1001) FPS 
Color space : YUV 
Chroma subsampling : 4:2:0 
Bit depth : 10 bits 
Bits/(Pixel*Frame) : 0.097 
Stream size : 6.31 GiB (91%) 

Audio 
ID : 2 
Format : AAC 
Format/Info : Advanced Audio Codec 
Format profile : LC 
Codec ID : A_AAC 
Duration : 3 h 15 min 
Bit rate : 369 kb/s 
Channel(s) : 6 channels 
Channel positions : Front: L C R, Side: L R, LFE 
Sampling rate : 48.0 kHz 
Frame rate : 46.875 FPS (1024 SPF) 
Compression mode : Lossy 
Delay relative to video : 9 ms 
Stream size : 515 MiB (7%) 
Title : English AAC VBR 5.1 
Language : English 
Default : Yes 
Forced : No 

“왜 나는 더 많은 유태인들을 구해내지 못하였는가?”

1939년 9월 독일군의 폴란드 점령과 함께 오스카 쉰들러는 폴란드의 크레코우로 이주해온다. 기회주의자에 호색한인 쉰들러는 전쟁중 나치와 결탁해 임금을 줄 필요가 없는 유대인을 공장의 인력으로 이용한다. 이때 만난 유대인 회계사 아이작 스턴은 쉰들러의 내면에 숨어 있던 양심을 일깨워준다. 유대인들에 대한 박해가 심해지자 쉰들러는 그들을 강제수용소에서 구해내기로 결심한다. 수용소 장교에게 뇌물을 주고 유대인들을 자신의 고향으로 옮길 계획을 세운 쉰들러는 스턴과 함께 구출할 유대인 명단을 작성한다. 
[한글] 쉰들러 리스트 Schindlers List 1993 1080p Bluray x265 10Bit AAC 5.1 - GetSchwifty
[ 바로감상 ] [ 다운로드 ]

   

총 게시물 2,894건, 최근 19 건
번호 제목 날짜 조회
2894
          1997년, 인간이 만든 인공지능 컴퓨터 전략 방어 네트워크가 스스로의 지능을 갖추고는 인…
19:48 0
2893
Movie name: The Silence of the Lambs Year: 1991 Video: 1080p | 10-bit | x265 Audio: 5.1Ch | AAC Size: 2.61 GB Encoded by HazmattFBI …
19:48 0
2892
19:48 0
2891
19:48 0
2890
19:48 0
2889
19:48 0
2888
천잠변 / 天蠶變 天蚕变 / Bastard Swordsman- 1983 / 홍콩 / 무협- 서소강, 유설화, 유영, 만자량, 양청청- …
19:48 0
2887
19:48 0
2886
  화려한 크리스마스 파티가 벌어지고 있는 대저택. 이곳은 극장을 운영하고 있는 에카달 가족의 보금…
19:48 0
2885
R | Comedy, Drama, Romance  13.2 Mbps / 1920x1040p / 23.976 fpsDTS / 1509 kbps / 6ch2h 18min14.21 GB
18:48 2
2884
<푸셔 1>의 속편. <피어 엑스>로 흥행에 참패한 윈딩 레픈에게 재기의 기회가 된 작품. 전편에서 …
03:48 43
2883
천재적인 두뇌의 소유자 리드(마일즈 텔러). 저명한 과학자 스톰 박사의 눈에 띄어 과학연구소 백스터에…
03:48 45
2882
천재적인 두뇌의 소유자 리드(마일즈 텔러). 저명한 과학자 스톰 박사의 눈에 띄어 과학연구소 백스터에…
03:48 44
2881
03:48 44
2880
03:48 41
2879
03:48 7
2878
정원은 꽃으로, 집안은 아들로 채워라! | 이상하게 닮은 녀석들 C.R.A.Z.Y.1960년 12월 25일, 독실한 카톨릭 집…
12-12 24
2877
12-12 22
2876
12-12 22
2875
12-12 29
 1  2  3  4  5  6  7  8  9  10  다음  맨끝