즐겨찾기 | 현재접속자 (157) | 최근게시물
총 게시물 173건, 최근 0 건
   

콩: 스컬 아일랜드 Kong Skull Island 2017 1080p 3D BluRay Half-SBS x264 AAC 5.1 - Hon3y

글쓴이 : 익명글쓴이 날짜 : 2017-07-07 (금) 17:48 조회 : 2999
다운로드 : 콩: 스컬 아일랜드 Kong Skull Island 2017 1080p 3D BluRay Half-SBS x264 AAC 5.1 - Hon3y (1.8G)
170705 170706 170707 다운, 유투브, 토렌트, 바로보기
Kong Skull Island 2017 1080p 3D BluRay Half-SBS x264 AAC 5.1 - Hon3y 

Source BD @ FGT. Many Thanks 


Format : Matroska 
Format version : Version 4 / Version 2 
File size : 2.76 GiB 
Duration : 1 h 58 min 
Overall bit rate : 3 336 kb/s 
Movie name : Kong Skull Island 2017 3D- [email protected]<script data-cfhash='f9e31' type="text/javascript">
Format settings, CABAC : Yes 
Format settings, ReFrames : 5 frames 
Codec ID : V_MPEG4/ISO/AVC 
Duration : 1 h 58 min 
Bit rate : 3 000 kb/s 
Width : 1 920 pixels 
Height : 800 pixels 
Display aspect ratio : 2.40:1 
Frame rate mode : Constant 
Frame rate : 23.976 (24000/1001) FPS 


Audio 
ID : 2 
Format : AAC 
Format/Info : Advanced Audio Codec 
Format profile : LC 
Codec ID : A_AAC 
Duration : 1 h 58 min 
Bit rate : 320 kb/s 
Channel(s) : 6 channels 
Channel positions : Front: L C R, Side: L R, LFE 
Sampling rate : 48.0 kHz 


Text #1 
ID : 3 
Format : UTF-8 
Codec ID : S_TEXT/UTF8 
Codec ID/Info : UTF-8 Plain Text 
Duration : 1 h 57 min 
Bit rate : 44 b/s 
Count of elements : 1250 
Stream size : 38.8 KiB (0%) 
Language : English 
Default : Yes 
Forced : No 

Text #2 
ID : 4 
Format : PGS 
Muxing mode : zlib 
Codec ID : S_HDMV/PGS 
Codec ID/Info : Picture based subtitle format used on BDs/HD-DVDs 
Duration : 1 h 58 min 
Bit rate : 14.0 kb/s 
Count of elements : 3060 
Stream size : 11.8 MiB (0%) 
Language : English 
Default : No 
Forced : No 


     
콩: 스컬 아일랜드 Kong Skull Island 2017 1080p 3D BluRay Half-SBS x264 AAC 5.1 - Hon3y
[ 바로감상 ] [ 다운로드 ]

   

총 게시물 173건, 최근 0 건
번호 제목 날짜 조회
173
줄거리  28세기 미래, 시공간을 압도하는 스페이스 최강 에이전트가 온다!수천 종의 외계종족이 평화롭…
11-19 406
172
줄거리  28세기 미래, 시공간을 압도하는 스페이스 최강 에이전트가 온다!수천 종의 외계종족이 평화롭…
11-19 432
171
Cars 3 2017 1080p 3D BluRay Half-SBS x264 DTS 5.1 MSubS- Hon3y : Media Info : Size: 4.37 GiB I Duration: 01h 42mn …
11-10 1058
170
GeneralFile size : 2.14 GBDuration : 2h 21mn 16scIMDB : http://www.imdb.com/title/tt0451279/Source : Wonder.Woman.2017.3D.1080p.BluRay.Half…
11-03 1355
169
War for the Planet of the Apes 2017 1080p 3D BluRay Half-SBS x264 DTS 5.1 MSubS - Hon3y : Media Info : Size: 4.35 GiB I Duration: 02h…
10-20 1974
168
09-24 2905
167
Transformers.The.Last.Knight.2017.3D.1080p.Half-SBS.BRRip.x264.AAC-Ozlem[ETRG] === NFO === Encoder...........: Ozlem File Si…
09-23 2745
166
-:RELEASE NOTES:-IMDb:- http://www.imdb.com/title/tt1790809 Movie Title: Pirates of the Caribbean: Dead Men Tell No Tales (2017) Director…
09-22 2479
165
Wonder Woman 2017 1080p 3D BluRay Half-SBS x264 DTS 5.1 MSubS-Hon3y  : Media Info : Size: 4.37 GiB I Duration: 02h 21mn 15s I Contai…
09-16 2363
164
Wonder.Woman.2017.3D.1080p.BluRay.x264-SPRiNTERLink: http://www.imdb.com/title/tt0451279Screenshots:Release.Date: 11.09.2017Source......: R…
09-12 2097
163
Guardians of the Galaxy Vol 2 2017 1080p 3D BluRay Half-SBS x264 DD 5.1-Hon3y : Media Info : Size: 4.37 GiB I Duration: 02h 15mn 45s I…
08-30 2574
162
마블 히어로의 새로운 시작!모든 것을 초월한, 역사상 가장 강력한 히어로가 온다!불의의 사고로 절망에 …
08-06 2889
161
인류의 기원을 찾는 태초로의 탐사 여행!지구상의 모든 역사를 뒤엎을 가공할 진실을 목격한다!  2085년.…
08-04 2880
160
08-03 2779
159
07-21 2872
158
Kong Skull Island 2017 1080p 3D BluRay Half-SBS x264 AAC 5.1 - Hon3y Source BD @ FGT. Many Thanks Format : Matroska Format version : Ver…
07-07 3000
157
Kong.Skull.Island.2017.1080p.3D.BluRay.Half-OU.x264.DTS-HD.MA.7.1-FGT (25.45 GB)Kong.Skull.Island.2017.1080p.3D.BluRay.Half-SBS.x264.DTS-H…
06-28 3062
156
Kong.Skull.Island.2017.3D.10800p.BRRip.Half-SBS.x264.AAC-Ozlem === NFO === Encoder...........: Ozlem File Size.........: 1.73 GB Source…
06-25 2875
155
Genre: Action | Adventure | Fantasy | Sci-Fi IMDB Rating: 6.9/10 from 101,513 users Directed by: Jordan Vogt-Roberts Starring: Tom Hiddl…
06-24 2956
154
줄거리 홀로 야생에 남겨진 작고 어린 공룡 파치의 위대한 모험!거대한 몸집과 머리 주변에 멋진 뿔을 …
06-20 2986
 1  2  3  4  5  6  7  8  9  맨끝